搜索
 热门推荐 (提示:迅雷不行的建议换百度网盘和115网盘离线下载,或BitComet、Utorrent等),好电影,怎能只看一次!
查看: 173|回复: 15

[蓝光/4K] 环形使者/回路杀手.2012.2160p.BluRay.REMUX.HEVC.DTS-HD.MA.5.1-FGT 74.01GB

[复制链接]
发表于 2021-7-19 21:02:16 | 显示全部楼层 |阅读模式

声明:以下此内容系统自动转载自网络,如有侵权,请发邮件到 admin@hdsky.net 本站将尽快删除!

p1809275117.jpg

◎译  名 环形使者/回路杀手(台)/时凶猎杀(港)
◎片  名 Looper
◎年  代 2012
◎产  地 美国,中国大陆
◎类  别 动作 / 科幻 / 惊悚
◎语  言 英语,法语,汉语普通话
◎上映日期 2012-09-06(多伦多电影节) / 2012-09-28(美国/中国大陆)
◎豆瓣评分 6.9/10 from 156715 users
◎豆瓣链接 https://movie.douban.com/subject/3179706/
◎片  长 110分钟(中国大陆)
◎导  演 莱恩·约翰逊 Rian Johnson
◎编  剧 莱恩·约翰逊 Rian Johnson
◎主  演 约瑟夫·高登-莱维特 Joseph Gordon-Levitt
      布鲁斯·威利斯 Bruce Willis
      艾米莉·布朗特 Emily Blunt
      保罗·达诺 Paul Dano
      皮尔斯·加格农 Pierce Gagnon
      杰夫·丹尼尔斯 Jeff Daniels
      许晴 Qing Xu
      贾里德·德帕斯夸尔 Jared DePasquale
      大卫·詹森 David Jensen
      科迪·伍德 Cody Wood
      詹姆斯·兰德里·赫伯特 James Landry Hébert
      派珀·佩拉博 Piper Perabo
      诺阿·西甘 Noah Segan
      加瑞特·迪拉胡特 Garret Dillahunt
      尼克·戈麦斯 Nick Gomez
      杰夫·蔡斯 Jeff Chase
      伊恩·帕特里克 Ian Patrick
      马库斯 · 赫斯特 Marcus Hester
      乔恩·阿兹 Jon Eyez
      翠茜·索姆斯 Tracie Thoms
      姜广涛 Guangtao Jiang

◎标  签 科幻 | 美国 | 穿越 | 时空 | 动作 | 2012 | 剧情 | 犯罪

◎简  介

  未来,2044年。时间旅行从被发明的一开始就属于非法,只有当黑帮组织想清理某个特定对象、又不愿意在此世界留下任何痕迹时,才会出动“环形使者”。他们专门负责处决那些被时间传送回彼世界的目标。之所以称为“环形使者”,因为他们最终必须杀死未来的自己——这样才不会给未来主顾留下任何的麻烦。这个过程被称为“封环”。杀手乔(约瑟夫·高登-莱维特 Joseph Gordon-Levitt 饰)是最年轻的环形使者,弹无虚发,然而当他想处决来自未来的自己(布鲁斯·威利斯 Bruce Willis 饰)时,却遭到激烈反抗而失手。老年乔希望杀死未来封环计划中的关键人物——唤雨师,从而改变妻子(许晴 饰)的命运;青年乔在追杀过程中遇到了农场单亲妈妈莎拉(艾米莉·布朗特 Emily Blunt 饰),意外的成为了一对母子的保护人。两个版本的乔在这场改变未来(和现在)的豪赌中各出奇谋,上演了自我的巅峰对决......

◎获奖情况

  第84届美国国家评论协会奖 ?(2013)
  最佳原创剧本 莱恩·约翰逊
  年度佳片
  
  第18届美国评论家选择电影奖 ?(2013)
  最佳动作片(提名)
  动作片最佳男主角(提名) 约瑟夫·高登-莱维特
  动作片最佳女主角(提名) 艾米莉·布朗特
  最佳科幻/恐怖片
  最佳原创剧本(提名) 莱恩·约翰逊
  
  第11届华盛顿影评人协会奖 ?(2012)
  最佳原创剧本 莱恩·约翰逊
  
  第25届芝加哥影评人协会奖 ?(2012)
  最佳女配角(提名) 艾米莉·布朗特
  最佳原创剧本(提名) 莱恩·约翰逊
  
  第12届凤凰城影评人协会奖 ?(2012)
  最佳特技表演(提名)
Video
ID : 1
ID in the original source medium : 4113 (0x1011)
Format : HEVC
Format/Info : High Efficiency Video Coding
Format profile : Main 10@L5.1@High
HDR format : SMPTE ST 2094 App 4, Version 1, HDR10+ Profile B compatible
Codec ID : V_MPEGH/ISO/HEVC
Duration : 1 h 58 min
Bit rate : 81.6 Mb/s
Width : 3 840 pixels
Height : 2 160 pixels
Display aspect ratio : 16:9
Frame rate mode : Constant
Frame rate : 23.976 (24000/1001/189150) FPS
Color space : YUV
Chroma subsampling : 4:2:0 (Type 2)
Bit depth : 10 bits
Bits/(Pixel*Frame) : 0.411
Stream size : 67.7 GiB (91%)
Language : English
Default : No
Forced : No
Color range : Limited
Color primaries : BT.2020
Transfer characteristics : PQ
Matrix coefficients : BT.2020 non-constant
Mastering display color primaries : Display P3
Mastering display luminance : min: 0.0001 cd/m2, max: 1000 cd/m2
Maximum Content Light Level : 1692 cd/m2
Maximum Frame-Average Light Level : 732 cd/m2
Original source medium : Blu-ray

Audio #1
ID : 2
ID in the original source medium : 4352 (0x1100)
Format : DTS XLL
Format/Info : Digital Theater Systems
Commercial name : DTS-HD Master Audio
Codec ID : A_DTS
Duration : 1 h 58 min
Bit rate mode : Variable
Bit rate : 2 397 kb/s
Channel(s) : 6 channels
Channel layout : C L R Ls Rs LFE
Sampling rate : 48.0 kHz
Frame rate : 93.750 FPS (512 SPF)
Bit depth : 16 bits
Compression mode : Lossless
Stream size : 1.99 GiB (3%)
Title : DTS-HD MA 5.1
Language : English
Default : Yes
Forced : No
Original source medium : Blu-ray

Audio #2
ID : 3
Format : AC-3
Format/Info : Audio Coding 3
Commercial name : Dolby Digital
Codec ID : A_AC3
Duration : 1 h 58 min
Bit rate mode : Constant
Bit rate : 640 kb/s
Channel(s) : 6 channels
Channel layout : L R C LFE Ls Rs
Sampling rate : 48.0 kHz
Frame rate : 31.250 FPS (1536 SPF)
Compression mode : Lossy
Stream size : 543 MiB (1%)
Title : DD 5.1
Language : English
Service kind : Complete Main
Default : No
Forced : No

Audio #3
ID : 4
ID in the original source medium : 4353 (0x1101)
Format : PCM
Format settings : Little / Signed
Codec ID : A_PCM/INT/LIT
Duration : 1 h 58 min
Bit rate mode : Constant
Bit rate : 2 304 kb/s
Channel(s) : 2 channels
Sampling rate : 48.0 kHz
Frame rate : 30.000 FPS (1600 SPF)
Bit depth : 24 bits
Stream size : 1.91 GiB (3%)
Title : LPCM 2.0
Language : English
Default : No
Forced : No
Original source medium : Blu-ray

Audio #4
ID : 5
ID in the original source medium : 4354 (0x1102)
Format : PCM
Format settings : Little / Signed
Codec ID : A_PCM/INT/LIT
Duration : 1 h 58 min
Bit rate mode : Constant
Bit rate : 2 304 kb/s
Channel(s) : 2 channels
Sampling rate : 48.0 kHz
Frame rate : 30.000 FPS (1600 SPF)
Bit depth : 24 bits
Stream size : 1.91 GiB (3%)
Title : LPCM 2.0
Language : English
Default : No
Forced : No
Original source medium : Blu-ray

Text #1
ID : 6
Format : UTF-8
Codec ID : S_TEXT/UTF8
Codec ID/Info : UTF-8 Plain Text
Duration : 1 h 52 min
Bit rate : 40 b/s
Count of elements : 1002
Stream size : 33.6 KiB (0%)
Title : English-SRT
Language : English
Default : Yes
Forced : No

Text #2
ID : 7
ID in the original source medium : 4768 (0x12A0)
Format : PGS
Muxing mode : zlib
Codec ID : S_HDMV/PGS
Codec ID/Info : Picture based subtitle format used on BDs/HD-DVDs
Duration : 1 h 52 min
Bit rate : 28.7 kb/s
Count of elements : 2258
Stream size : 23.1 MiB (0%)
Title : English-PGS
Language : English
Default : No
Forced : No
Original source medium : Blu-ray

Menu
00:00:00.000 : Chapter 01
00:04:11.084 : Chapter 02
00:10:24.582 : Chapter 03
00:21:10.602 : Chapter 04
00:25:47.337 : Chapter 05
00:31:39.272 : Chapter 06
00:36:39.155 : Chapter 07
00:41:35.117 : Chapter 08
00:52:11.628 : Chapter 09
00:57:12.512 : Chapter 10
01:01:42.990 : Chapter 11
01:07:57.782 : Chapter 12
01:12:54.787 : Chapter 13
01:18:13.605 : Chapter 14
01:23:46.146 : Chapter 15
01:31:35.198 : Chapter 16
01:34:16.525 : Chapter 17
01:37:06.570 : Chapter 18
01:40:52.504 : Chapter 19
01:50:53.313 : Chapter 20



游客,如果您要查看本帖隐藏内容请回复


声明:此内容系统自动转载自网络,如有侵权请发邮件到 admin@hdsky.net 本站将及时删除!
免责申明 - 版权声明1、本站所有资源均由会员收集分享自网络公开渠道,仅供交流学习或测试宽带,禁用商业用途或盈利,下载后请在24小时之内删除;
2、本站(hdsky.net)支持正版尊重版权,所有资源源版权归版权方所有,观看或阅读请到相应机构购买正版资源;
3、本站所有资源均来源于网络公开渠道,本站不参与录制、上传,如有内容侵犯到任何版权问题,请及时联系本站( admin@hdsky.net ),       本站将及时予与删除并致以最深的歉意。
发表于 2021-7-20 10:28:33 | 显示全部楼层
好片,感谢分享
回复 支持 反对

使用道具

发表于 2021-7-20 14:08:10 | 显示全部楼层
感谢帖主的分享啊
回复 支持 反对

使用道具

发表于 2021-7-20 17:41:24 | 显示全部楼层
好片,感谢分享
回复 支持 反对

使用道具

发表于 2021-7-20 20:09:55 | 显示全部楼层
一直想看这个,不过太大了
回复 支持 反对

使用道具

发表于 2021-7-20 21:54:02 | 显示全部楼层
这属于悬疑片的感觉
回复 支持 反对

使用道具

发表于 7 天前 | 显示全部楼层
感谢楼主分享
回复 支持 反对

使用道具

发表于 7 天前 | 显示全部楼层
谢楼主分享
回复 支持 反对

使用道具

发表于 7 天前 | 显示全部楼层

谢谢楼主分享
回复 支持 反对

使用道具

发表于 7 天前 | 显示全部楼层
谢谢楼主的分享
回复 支持 反对

使用道具

您需要登录后才可以回帖 登录 | 立即注册

本版积分规则


免责申明:本站所有资源均由网友收集转载自网络公开渠道,仅供测试宽带使用,禁用商业用途或盈利,请在下载后24小时内删除;

请大家支持正版尊重版权,所有资源源版权归版权方所有,观看或阅读请到相应机构购买正版,本站不制作、不存储任何音视频内容;

如有任何内容无意间侵犯了您的权益,请邮件通知 admin@hdsky.net ,收到邮件后本站会及时删除并向您表示最深的歉意。



HDSky天空论坛 |Archiver||我的广告

Powered by Discuz! X3.4© 2013-2023 HDSky design

GMT+8, 2021-7-28 14:50 , Processed in 2.403075 second(s), 28 queries .