HDSky高清论坛

 找回密码
 立即注册

QQ登录

只需一步,快速开始

 精彩推荐 (提示:请使用迅雷完整版开通VIP、或BitComet、Utorrent 、115和百度网盘等工具),好电影,怎能只看一次!
查看: 2791|回复: 59

星际穿越 2014.2160p.BluRay.x264.8bit.SDR.DTS-HD.MA.5.1-SWTYBLZ 71GB

  [复制链接]

管理员

Rank: 9Rank: 9Rank: 9

金币
4537803

最佳帅哥奖 管理人员勋章 天秤座 终身成就奖

发表于 2018-7-17 20:37:49 |显示全部楼层
c465cec2896b31a8bf108a934384354b.jpg

◎译  名 星际穿越/星际启示录(港)/星际效应(台)/星际空间/星际之间/星际远航/星际

◎片  名 Interstellar

◎年  代 2014

◎产  地 美国/英国/加拿大/冰岛

◎类  别 剧情/科幻/冒险

◎语  言 英语

◎上映日期 2014-11-07(美国)/2014-11-12(中国大陆)

◎IMDb评分  8.6/10 from 1,130,882 users

◎IMDb链接  http://www.imdb.com/title/tt0816692/

◎豆瓣评分 9.1/10 from 521,373 users

◎豆瓣链接 https://movie.douban.com/subject/1889243/

◎BT之家整理 http://www.btbtt.co

◎片  长 169分钟

◎导  演 克里斯托弗·诺兰 Christopher Nolan

◎主  演 马修·麦康纳 Matthew McConaughey

      安妮·海瑟薇 Anne Hathaway

      杰西卡·查斯坦 Jessica Chastain

      卡西·阿弗莱克 Casey Affleck

      迈克尔·凯恩 Michael Caine

      马特·达蒙 Matt Damon

      麦肯吉·弗依 Mackenzie Foy

      蒂莫西·柴勒梅德 Timothée Chalamet

      艾伦·伯斯汀 Ellen Burstyn

      约翰·利特高 John Lithgow

      韦斯·本特利 Wes Bentley

      大卫·吉雅西 David Gyasi

      比尔·欧文 Bill Irwin

      托弗·戈瑞斯 Topher Grace

      科莱特·沃夫 Collette Wolfe

      弗朗西斯·X·麦卡蒂 Francis X. McCarthy

      安德鲁·博尔巴 Andrew Borba

      乔什·斯图沃特 Josh Stewart

      莱雅·卡里恩斯 Leah Cairns

      利亚姆·迪金森 Liam Dickinson

      杰夫·赫普内尔 Jeff Hephner

      伊莱耶斯·加贝尔 Elyes Gabel

      布鲁克·史密斯 Brooke Smith

      大卫·奥伊罗 David Oyelowo

      威廉姆·德瓦内 William Devane

      拉什·费加 Russ Fega

      格里芬·弗雷泽 Griffen Fraser

      弗洛拉·诺兰 Flora Nolan



◎简  介



  近未来的地球黄沙遍野,小麦、秋葵等基础农作物相继因枯萎病灭绝,人类不再像从前那样仰望星空,放纵想象力和灵感的迸发,而是每日在沙尘暴的肆虐下倒数着所剩不多的光景。在家务农的前NASA宇航员库珀(马修·麦康纳 Matthew McConaughey 饰)接连在女儿墨菲(麦肯吉·弗依 Mackenzie Foy 饰)的书房发现奇怪的重力场现象,随即得知在某个未知区域内前NASA成员仍秘密进行一个拯救人类的计划。多年以前土星附近出现神秘虫洞,NASA借机将数名宇航员派遣到遥远的星系寻找适合居住的星球。在布兰德教授(迈克尔·凯恩 Michael Caine 饰)的劝说下,库珀忍痛告别了女儿,和其他三名专家教授女儿艾米莉亚·布兰德(安妮·海瑟薇 Anne Hathaway 饰)、罗米利(大卫·吉雅西 David Gyasi 饰)、多伊尔(韦斯·本特利 Wes Bentley 饰)搭乘宇宙飞船前往目前已知的最有希望的三颗星球考察。

  他们穿越遥远的星系银河,感受了一小时七年光阴的沧海桑田,窥见了未知星球和黑洞的壮伟与神秘。在浩瀚宇宙的绝望而孤独角落,总有一份超越了时空的笃定情怀将他们紧紧相连……



◎获奖情况



  第87届奥斯卡金像奖  (2015)

  最佳视觉效果

  最佳混音(提名)

  最佳音效剪辑(提名)

  最佳艺术指导(提名)

  最佳原创配乐(提名)



  第72届金球奖  (2015)

  电影类 最佳原创配乐(提名)



  第38届日本电影学院奖  (2015)

  最佳外语片(提名)



  第15届美国电影学会奖  (2014)

  年度佳片



  第13届华盛顿影评人协会奖  (2014)

  最佳青少年表演(提名) 麦肯吉·弗依

  最佳摄影(提名) 霍伊特·范·霍特玛

  最佳剪辑(提名) 李·史密斯

  最佳原创配乐(提名) 汉斯·季默

  最佳艺术指导(提名) Nathan Crowley / Gary Fettis



  第17届美国青少年选择奖  (2015)

  最佳科幻/奇幻电影女演员(提名) 麦肯吉·弗依



  第1届豆瓣电影年度榜单  (2014)

  评分最高的外语电影

  最受关注的院线电影(提名)

  年度电影原声(提名)

  11月最受关注电影



  第5届豆瓣电影鑫像奖  (2015)

  鑫豆单元 最佳影片(外语)

  鑫豆单元 最佳导演(外语) 克里斯托弗·诺兰

  鑫豆单元 最佳男演员(外语) 马修·麦康纳

  鑫豆单元 最佳科幻/动作片

  鑫豆单元 最佳配乐



Video
ID                                       : 1
Format                                   : AVC
Format/Info                              : Advanced Video Codec
Format profile                           : High@L5.1
Format settings                          : CABAC / 5 Ref Frames
Format settings, CABAC                   : Yes
Format settings, RefFrames               : 5 frames
Codec ID                                 : V_MPEG4/ISO/AVC
Duration                                 : 2 h 49 min
Bit rate                                 : 56.1 Mb/s
Width                                    : 3 840 pixels
Height                                   : 2 160 pixels
Display aspect ratio                     : 16:9
Frame rate mode                          : Constant
Frame rate                               : 23.976 (24000/1001) FPS
Color space                              : YUV
Chroma subsampling                       : 4:2:0
Bit depth                                : 8 bits
Scan type                                : Progressive
Bits/(Pixel*Frame)                       : 0.282
Stream size                              : 65.1 GiB (92%)
Title                                    : Interstellar.2014.2160p.BluRay.x264.8bit.SDR.DTS-HD.MA.5.1-SWTYBLZ
Writing library                          : x264 core 148 r2748 97eaef2
Encoding settings                        : cabac=1 / ref=5 / deblock=1:-1:-1 / analyse=0x3:0x113 / me=umh / subme=10 / psy=1 / psy_rd=1.00:0.15 / mixed_ref=1 / me_range=48 / chroma_me=1 / trellis=2 / 8x8dct=1 / cqm=0 / deadzone=21,11 / fast_pskip=1 / chroma_qp_offset=-3 / threads=67 / lookahead_threads=5 / sliced_threads=0 / nr=0 / decimate=0 / interlaced=0 / bluray_compat=0 / constrained_intra=0 / bframes=3 / b_pyramid=2 / b_adapt=2 / b_bias=0 / direct=3 / weightb=1 / open_gop=0 / weightp=2 / keyint=250 / keyint_min=23 / scenecut=40 / intra_refresh=0 / rc_lookahead=50 / rc=crf / mbtree=1 / crf=18.0 / qcomp=0.60 / qpmin=0 / qpmax=69 / qpstep=4 / ip_ratio=1.40 / aq=1:1.00
Default                                  : Yes
Forced                                   : No

Audio #1
ID                                       : 2
Format                                   : DTS
Format/Info                              : Digital Theater Systems
Format profile                           : MA / Core
Codec ID                                 : A_DTS
Duration                                 : 2 h 49 min
Bit rate mode                            : Variable / Constant
Bit rate                                 : 3 686 kb/s / 1 509 kb/s
Channel(s)                               : 6 channels
Channel positions                        : Front: L C R, Side: L R, LFE
Sampling rate                            : 48.0 kHz
Frame rate                               : 93.750 FPS (512 SPF)
Bit depth                                : 24 bits
Compression mode                         : Lossless / Lossy
Stream size                              : 4.35 GiB (6%)
Title                                    : Interstellar.2014.2160p.BluRay.x264.8bit.SDR.DTS-HD.MA.5.1-SWTYBLZ
Language                                 : English
Default                                  : Yes
Forced                                   : No

Audio #2
ID                                       : 3
Format                                   : AC-3
Format/Info                              : Audio Coding 3
Codec ID                                 : A_AC3
Duration                                 : 2 h 49 min
Bit rate mode                            : Constant
Bit rate                                 : 640 kb/s
Channel(s)                               : 6 channels
Channel positions                        : Front: L C R, Side: L R, LFE
Sampling rate                            : 48.0 kHz
Frame rate                               : 31.250 FPS (1536 SPF)
Bit depth                                : 16 bits
Compression mode                         : Lossy
Stream size                              : 774 MiB (1%)
Title                                    : Interstellar.2014.2160p.BluRay.x264.8bit.SDR.DTS-HD.MA.5.1-SWTYBLZ
Language                                 : English
Service kind                             : Complete Main
Default                                  : No
Forced                                   : No

Text #1
ID                                       : 4
Format                                   : UTF-8
Codec ID                                 : S_TEXT/UTF8
Codec ID/Info                            : UTF-8 Plain Text
Duration                                 : 2 h 42 min
Bit rate                                 : 56 b/s
Count of elements                        : 1906
Stream size                              : 67.6 KiB (0%)
Title                                    : English-SRT
Language                                 : English
Default                                  : Yes
Forced                                   : No

Text #2
ID                                       : 5
Format                                   : PGS
Muxing mode                              : zlib
Codec ID                                 : S_HDMV/PGS
Codec ID/Info                            : Picture based subtitle format used on BDs/HD-DVDs
Duration                                 : 2 h 47 min
Bit rate                                 : 31.5 kb/s
Count of elements                        : 4194
Stream size                              : 37.8 MiB (0%)
Title                                    : English-PGS
Language                                 : English
Default                                  : No
Forced                                   : No

Text #3
ID                                       : 6
Format                                   : PGS
Muxing mode                              : zlib
Codec ID                                 : S_HDMV/PGS
Codec ID/Info                            : Picture based subtitle format used on BDs/HD-DVDs
Duration                                 : 2 h 42 min
Bit rate                                 : 23.1 kb/s
Count of elements                        : 4129
Stream size                              : 26.9 MiB (0%)
Title                                    : Japanese-PGS
Language                                 : Japanese
Default                                  : No
Forced                                   : No

Text #4
ID                                       : 7
Format                                   : PGS
Muxing mode                              : zlib
Codec ID                                 : S_HDMV/PGS
Codec ID/Info                            : Picture based subtitle format used on BDs/HD-DVDs
Duration                                 : 2 h 47 min
Bit rate                                 : 25.2 kb/s
Count of elements                        : 4200
Stream size                              : 30.2 MiB (0%)
Title                                    : French-PGS
Language                                 : French
Default                                  : No
Forced                                   : No

Text #5
ID                                       : 8
Format                                   : PGS
Muxing mode                              : zlib
Codec ID                                 : S_HDMV/PGS
Codec ID/Info                            : Picture based subtitle format used on BDs/HD-DVDs
Duration                                 : 2 h 47 min
Bit rate                                 : 35.7 kb/s
Count of elements                        : 4192
Stream size                              : 42.8 MiB (0%)
Title                                    : German-PGS
Language                                 : German
Default                                  : No
Forced                                   : No

Text #6
ID                                       : 9
Format                                   : PGS
Muxing mode                              : zlib
Codec ID                                 : S_HDMV/PGS
Codec ID/Info                            : Picture based subtitle format used on BDs/HD-DVDs
Duration                                 : 2 h 47 min
Bit rate                                 : 31.8 kb/s
Count of elements                        : 4190
Stream size                              : 38.2 MiB (0%)
Title                                    : Italian-PGS
Language                                 : Italian
Default                                  : No
Forced                                   : No

Text #7
ID                                       : 10
Format                                   : PGS
Muxing mode                              : zlib
Codec ID                                 : S_HDMV/PGS
Codec ID/Info                            : Picture based subtitle format used on BDs/HD-DVDs
Duration                                 : 2 h 47 min
Bit rate                                 : 28.5 kb/s
Count of elements                        : 4002
Stream size                              : 34.2 MiB (0%)
Title                                    : Spanish-PGS
Language                                 : Spanish
Default                                  : No
Forced                                   : No

Text #8
ID                                       : 11
Format                                   : PGS
Muxing mode                              : zlib
Codec ID                                 : S_HDMV/PGS
Codec ID/Info                            : Picture based subtitle format used on BDs/HD-DVDs
Duration                                 : 2 h 47 min
Bit rate                                 : 25.1 kb/s
Count of elements                        : 3516
Stream size                              : 30.2 MiB (0%)
Title                                    : Dutch-PGS
Language                                 : Dutch
Default                                  : No
Forced                                   : No

Text #9
ID                                       : 12
Format                                   : PGS
Muxing mode                              : zlib
Codec ID                                 : S_HDMV/PGS
Codec ID/Info                            : Picture based subtitle format used on BDs/HD-DVDs
Duration                                 : 2 h 47 min
Bit rate                                 : 24.2 kb/s
Count of elements                        : 3978
Stream size                              : 29.1 MiB (0%)
Title                                    : Chinese-PGS
Language                                 : Chinese
Default                                  : No
Forced                                   : No

Text #10
ID                                       : 13
Format                                   : PGS
Muxing mode                              : zlib
Codec ID                                 : S_HDMV/PGS
Codec ID/Info                            : Picture based subtitle format used on BDs/HD-DVDs
Duration                                 : 2 h 47 min
Bit rate                                 : 23.9 kb/s
Count of elements                        : 3976
Stream size                              : 28.7 MiB (0%)
Title                                    : Chinese-PGS
Language                                 : Chinese
Default                                  : No
Forced                                   : No

Text #11
ID                                       : 14
Format                                   : PGS
Muxing mode                              : zlib
Codec ID                                 : S_HDMV/PGS
Codec ID/Info                            : Picture based subtitle format used on BDs/HD-DVDs
Duration                                 : 2 h 47 min
Bit rate                                 : 21.1 kb/s
Count of elements                        : 3964
Stream size                              : 25.3 MiB (0%)
Title                                    : Korean-PGS
Language                                 : Korean
Default                                  : No
Forced                                   : No

Text #12
ID                                       : 15
Format                                   : PGS
Muxing mode                              : zlib
Codec ID                                 : S_HDMV/PGS
Codec ID/Info                            : Picture based subtitle format used on BDs/HD-DVDs
Duration                                 : 2 h 47 min
Bit rate                                 : 30.2 kb/s
Count of elements                        : 3984
Stream size                              : 36.3 MiB (0%)
Title                                    : Spanish-PGS
Language                                 : Spanish
Default                                  : No
Forced                                   : No

Text #13
ID                                       : 16
Format                                   : PGS
Muxing mode                              : zlib
Codec ID                                 : S_HDMV/PGS
Codec ID/Info                            : Picture based subtitle format used on BDs/HD-DVDs
Duration                                 : 2 h 47 min
Bit rate                                 : 29.0 kb/s
Count of elements                        : 3974
Stream size                              : 34.8 MiB (0%)
Title                                    : Portuguese-PGS
Language                                 : Portuguese
Default                                  : No
Forced                                   : No

Text #14
ID                                       : 17
Format                                   : PGS
Muxing mode                              : zlib
Codec ID                                 : S_HDMV/PGS
Codec ID/Info                            : Picture based subtitle format used on BDs/HD-DVDs
Duration                                 : 2 h 47 min
Bit rate                                 : 14.1 kb/s
Count of elements                        : 3978
Stream size                              : 17.0 MiB (0%)
Title                                    : Arabic-PGS
Language                                 : Arabic
Default                                  : No
Forced                                   : No

Text #15
ID                                       : 18
Format                                   : PGS
Muxing mode                              : zlib
Codec ID                                 : S_HDMV/PGS
Codec ID/Info                            : Picture based subtitle format used on BDs/HD-DVDs
Duration                                 : 2 h 47 min
Bit rate                                 : 28.4 kb/s
Count of elements                        : 3948
Stream size                              : 34.1 MiB (0%)
Title                                    : Croatian-PGS
Language                                 : Croatian
Default                                  : No
Forced                                   : No

Text #16
ID                                       : 19
Format                                   : PGS
Muxing mode                              : zlib
Codec ID                                 : S_HDMV/PGS
Codec ID/Info                            : Picture based subtitle format used on BDs/HD-DVDs
Duration                                 : 2 h 47 min
Bit rate                                 : 25.1 kb/s
Count of elements                        : 3972
Stream size                              : 30.1 MiB (0%)
Title                                    : Czech-PGS
Language                                 : Czech
Default                                  : No
Forced                                   : No

Text #17
ID                                       : 20
Format                                   : PGS
Muxing mode                              : zlib
Codec ID                                 : S_HDMV/PGS
Codec ID/Info                            : Picture based subtitle format used on BDs/HD-DVDs
Duration                                 : 2 h 47 min
Bit rate                                 : 28.3 kb/s
Count of elements                        : 3908
Stream size                              : 34.0 MiB (0%)
Title                                    : Danish-PGS
Language                                 : Danish
Default                                  : No
Forced                                   : No

Text #18
ID                                       : 21
Format                                   : PGS
Muxing mode                              : zlib
Codec ID                                 : S_HDMV/PGS
Codec ID/Info                            : Picture based subtitle format used on BDs/HD-DVDs
Duration                                 : 2 h 47 min
Bit rate                                 : 23.0 kb/s
Count of elements                        : 3232
Stream size                              : 27.6 MiB (0%)
Title                                    : Finnish-PGS
Language                                 : Finnish
Default                                  : No
Forced                                   : No

Text #19
ID                                       : 22
Format                                   : PGS
Muxing mode                              : zlib
Codec ID                                 : S_HDMV/PGS
Codec ID/Info                            : Picture based subtitle format used on BDs/HD-DVDs
Duration                                 : 2 h 47 min
Bit rate                                 : 27.5 kb/s
Count of elements                        : 3960
Stream size                              : 33.0 MiB (0%)
Title                                    : Greek-PGS
Language                                 : Greek
Default                                  : No
Forced                                   : No

Text #20
ID                                       : 23
Format                                   : PGS
Muxing mode                              : zlib
Codec ID                                 : S_HDMV/PGS
Codec ID/Info                            : Picture based subtitle format used on BDs/HD-DVDs
Duration                                 : 2 h 47 min
Bit rate                                 : 21.9 kb/s
Count of elements                        : 3966
Stream size                              : 26.2 MiB (0%)
Title                                    : Hebrew-PGS
Language                                 : Hebrew
Default                                  : No
Forced                                   : No

Text #21
ID                                       : 24
Format                                   : PGS
Muxing mode                              : zlib
Codec ID                                 : S_HDMV/PGS
Codec ID/Info                            : Picture based subtitle format used on BDs/HD-DVDs
Duration                                 : 2 h 47 min
Bit rate                                 : 28.9 kb/s
Count of elements                        : 3968
Stream size                              : 34.7 MiB (0%)
Title                                    : Hungarian-PGS
Language                                 : Hungarian
Default                                  : No
Forced                                   : No

Text #22
ID                                       : 25
Format                                   : PGS
Muxing mode                              : zlib
Codec ID                                 : S_HDMV/PGS
Codec ID/Info                            : Picture based subtitle format used on BDs/HD-DVDs
Duration                                 : 2 h 47 min
Bit rate                                 : 26.5 kb/s
Count of elements                        : 3410
Stream size                              : 31.8 MiB (0%)
Title                                    : Norwegian-PGS
Language                                 : Norwegian
Default                                  : No
Forced                                   : No

Text #23
ID                                       : 26
Format                                   : PGS
Muxing mode                              : zlib
Codec ID                                 : S_HDMV/PGS
Codec ID/Info                            : Picture based subtitle format used on BDs/HD-DVDs
Duration                                 : 2 h 47 min
Bit rate                                 : 24.2 kb/s
Count of elements                        : 3918
Stream size                              : 29.0 MiB (0%)
Title                                    : Polish-PGS
Language                                 : Polish
Default                                  : No
Forced                                   : No

Text #24
ID                                       : 27
Format                                   : PGS
Muxing mode                              : zlib
Codec ID                                 : S_HDMV/PGS
Codec ID/Info                            : Picture based subtitle format used on BDs/HD-DVDs
Duration                                 : 2 h 47 min
Bit rate                                 : 30.3 kb/s
Count of elements                        : 3984
Stream size                              : 36.4 MiB (0%)
Title                                    : Portuguese-PGS
Language                                 : Portuguese
Default                                  : No
Forced                                   : No

Text #25
ID                                       : 28
Format                                   : PGS
Muxing mode                              : zlib
Codec ID                                 : S_HDMV/PGS
Codec ID/Info                            : Picture based subtitle format used on BDs/HD-DVDs
Duration                                 : 2 h 47 min
Bit rate                                 : 27.6 kb/s
Count of elements                        : 3786
Stream size                              : 33.1 MiB (0%)
Title                                    : Romanian-PGS
Language                                 : Romanian
Default                                  : No
Forced                                   : No

Text #26
ID                                       : 29
Format                                   : PGS
Muxing mode                              : zlib
Codec ID                                 : S_HDMV/PGS
Codec ID/Info                            : Picture based subtitle format used on BDs/HD-DVDs
Duration                                 : 2 h 47 min
Bit rate                                 : 30.3 kb/s
Count of elements                        : 4104
Stream size                              : 36.4 MiB (0%)
Title                                    : Russian-PGS
Language                                 : Russian
Default                                  : No
Forced                                   : No

Text #27
ID                                       : 30
Format                                   : PGS
Muxing mode                              : zlib
Codec ID                                 : S_HDMV/PGS
Codec ID/Info                            : Picture based subtitle format used on BDs/HD-DVDs
Duration                                 : 2 h 47 min
Bit rate                                 : 27.4 kb/s
Count of elements                        : 3368
Stream size                              : 32.9 MiB (0%)
Title                                    : Swedish-PGS
Language                                 : Swedish
Default                                  : No
Forced                                   : No

Text #28
ID                                       : 31
Format                                   : PGS
Muxing mode                              : zlib
Codec ID                                 : S_HDMV/PGS
Codec ID/Info                            : Picture based subtitle format used on BDs/HD-DVDs
Duration                                 : 1 h 6 min
Bit rate                                 : 79 b/s
Count of elements                        : 6
Stream size                              : 38.7 KiB (0%)
Title                                    : Japanese-PGS
Language                                 : Japanese
Default                                  : No
Forced                                   : No

Menu
00:00:00.000                             : en:Chapter 1
00:09:35.491                             : en:Chapter 2
00:17:12.322                             : en:Chapter 3
00:25:00.749                             : en:Chapter 4
00:35:45.393                             : en:Chapter 5
00:42:16.867                             : en:Chapter 6
00:50:19.891                             : en:Chapter 7
00:54:48.076                             : en:Chapter 8
00:58:59.702                             : en:Chapter 9
01:06:15.012                             : en:Chapter 10
01:17:28.185                             : en:Chapter 11
01:25:32.001                             : en:Chapter 12
01:34:31.999                             : en:Chapter 13
01:46:14.701                             : en:Chapter 14
01:55:34.552                             : en:Chapter 15
02:02:14.368                             : en:Chapter 16
02:12:56.843                             : en:Chapter 17
02:20:53.820                             : en:Chapter 18
02:35:12.094                             : en:Chapter 19
02:43:59.830                             : en:Chapter 20

4cf287ddf30888a8b58d953996fb7827.jpg
2e6f0c22840b6632d2b22bf467fb5501.jpg
ee944ffcaeec0b5798a12fa315721eb2.jpg


xiazai.jpg

游客,如果您要查看本帖隐藏内容请回复  VIP免回复、免金币快速下载全站资源 自助在线开通VIP

支付宝 扫码领红包

郑重声明

HDSky所有影视作品来自互联网公开渠道,内容系自动转载供网友交流学习,影视版权均归原电影公司所有, 我们不提供任何影片压制、存储及传播服务,如果喜欢请购买正版!转载内容如有侵权请与 admin@hdsky.net 联系 我们将尽快删除!

普通观众 Lv.2

Rank: 2

金币
92

发表于 2018-7-18 08:18:32 |显示全部楼层
多谢楼主分享
回复

使用道具 举报

专业龙套 Lv.4

Rank: 4

金币
829

发表于 2018-7-18 09:40:29 |显示全部楼层
感谢楼主分享
回复

使用道具 举报

群众演员 Lv.3

Rank: 3Rank: 3

金币
341

发表于 2018-7-18 10:04:37 |显示全部楼层
谢谢分享
回复

使用道具 举报

普通观众 Lv.2

Rank: 2

金币
56

发表于 2018-7-18 19:10:49 |显示全部楼层
666666
回复

使用道具 举报

VIP3

Rank: 8Rank: 8

金币
4

 成长值: 1935
发表于 2018-7-18 19:30:18 |显示全部楼层
谢谢分享~
回复

使用道具 举报

普通观众 Lv.2

Rank: 2

金币
3

发表于 2018-7-18 22:13:56 |显示全部楼层
谢谢楼主。
回复

使用道具 举报

专业龙套 Lv.4

Rank: 4

金币
1044

发表于 2018-7-20 19:54:55 |显示全部楼层
谢谢分享                              
回复

使用道具 举报

群众演员 Lv.3

Rank: 3Rank: 3

金币
0

发表于 2018-7-20 21:16:21 |显示全部楼层
谢谢楼主~
回复

使用道具 举报

普通观众 Lv.2

Rank: 2

金币
50

发表于 2018-7-21 20:26:11 |显示全部楼层
这部电影经典中的经典
回复

使用道具 举报

您需要登录后才可以回帖 登录 | 立即注册

本版积分规则

Archiver|手机版|HDSky高清论坛

GMT+8, 2019-8-25 04:54 , Processed in 0.142905 second(s), 35 queries .

Powered by Discuz! X3.4

© 2012-2019 HDSky Inc.

返回顶部