HDSky高清论坛

 找回密码
 立即注册

QQ登录

只需一步,快速开始

 精彩推荐 (提示:请使用迅雷完整版开通VIP、或BitComet、Utorrent 、115和百度网盘等工具),好电影,怎能只看一次!
查看: 1236|回复: 87

[4k电影] 蜘蛛侠:英雄远征/Spider-Man.Far.From.Home.2019.INTERNAL.2160p. 22.76G

  [复制链接]

管理员

Rank: 9Rank: 9Rank: 9

金币
4555087

最佳帅哥奖 管理人员勋章 天秤座 终身成就奖

发表于 2019-9-17 22:01:19 |显示全部楼层
905c766f097b5.png

◎译  名 蜘蛛侠:英雄远征 / 新蜘蛛侠2 / 蜘蛛侠2 / 蜘蛛侠2:离家出走(豆友译名) / 蜘蛛侠2:英雄离乡 / 蜘蛛侠2:远离家乡 / 蜘蛛侠:决战千里(港) / 蜘蛛侠:归来2 / 蜘蛛侠:离家日(台) / 蜘蛛侠:英雄归来2 / 蜘蛛侠:远离故乡
◎片  名 Spider-Man: Far from Home
◎年  代 2019
◎产  地 美国
◎类  别 动作 / 科幻 / 冒险
◎语  言 英语
◎上映日期 2019-06-28(中国大陆) / 2019-07-02(美国)
◎IMDb评分 7.9/10 from 161425 users
◎IMDb链接 http://www.imdb.com/title/tt6320628
◎豆瓣评分 7.9/10 from 346059 users
◎豆瓣链接 https://movie.douban.com/subject/26931786/
◎片  长 127分钟
◎导  演 乔·沃茨 Jon Watts
◎编  剧 克里斯·麦克纳 Chris McKenna / 埃里克·萨默斯 Erik Sommers / 史蒂夫·迪特寇 Steve Ditko / 斯坦·李 Stan Lee
◎主  演 汤姆·赫兰德 Tom Holland
      赞达亚 Zendaya
      杰克·吉伦哈尔 Jake Gyllenhaal
      寇碧·史莫德斯 Cobie Smulders
      塞缪尔·杰克逊 Samuel L. Jackson
      乔恩·费儒 Jon Favreau
      玛丽莎·托梅 Marisa Tomei
      雅各布·巴特朗 Jacob Batalon
      安格瑞·赖斯 Angourie Rice
      马丁·斯塔尔 Martin Starr
      瑞米·海依 Remy Hii
      纽曼·阿卡 Numan Acar
      托尼·雷沃罗利 Tony Revolori
      J·B·斯穆夫 J.B. Smoove
      赫米基·马德拉 Hemky Madera
      戴维娜·西塔拉姆 Davina Sitaram
      约瑟夫·朗 Joseph Long
      露丝·霍洛克斯 Ruth Horrocks
      哈廷·帕特尔 Hiten Patel
      杰罗恩·凡·康宁斯伯格 Jeroen van Koningsbrugge
      Leonys Delossantos
      查利·蕾娅·埃斯奎尔 Charlie Rhea Esquér
      费斯·洛根 Faith Logan
      J·K·西蒙斯 J.K. Simmons
      小罗伯特·唐尼 Robert Downey Jr.


◎标  签 漫威 | 超级英雄 | 美国 | 科幻 | 2019 | 成长 | 动作 | 漫画改编

◎简  介

  在复仇者联盟众英雄的努力下,于灭霸无限手套事件中化作为灰烬的人们,重新回到了人世间,曾经消失的蜘蛛侠 彼得帕克 也回归到了普通的生活之中,数月后,蜘蛛侠彼得帕克所在的学校举行了欧洲旅游,帕克也在其中, 在欧州威尼斯旅行时,一个巨大无比的水怪袭击了威尼斯,不敌敌人的蜘蛛侠幸得一位自称神秘客的男子搭救才击退敌人,之后 神盾局局长找上正在旅游的彼得帕克并要求其加入神盾局,并安排神秘客协助帕克,神秘客自称来自其他宇宙,并告知一群名为元素众的邪恶势力已经入侵这个宇宙了,为了守护来之不易的和平,蜘蛛侠决定与神秘客联手,然而在神秘客那头罩之中,似乎隐藏着什么不为人知的真相……

◎获奖情况

  第5届豆瓣电影年度榜单(2018)
  最值得期待的外语电影(提名)
Video
ID : 1
Format : HEVC
Format/Info : High Efficiency Video Coding
Format profile : Main 10@L5@High
Codec ID : V_MPEGH/ISO/HEVC
Duration : 2 h 9 min
Bit rate : 24.0 Mb/s
Width : 3 840 pixels
Height : 1 608 pixels
Original height : 2 160 pixels
Display aspect ratio : 16:9
Frame rate mode : Constant
Frame rate : 23.976 (24000/1001) FPS
Color space : YUV
Chroma subsampling : 4:2:0 (Type 2)
Bit depth : 10 bits
Bits/(Pixel*Frame) : 0.162
Stream size : 21.7 GiB (96%)
Default : Yes
Forced : No
Color range : Limited
Color primaries : BT.709
Transfer characteristics : BT.709
Matrix coefficients : BT.709

Audio
ID : 2
Format : E-AC-3 JOC
Format/Info : Enhanced AC-3 with Joint Object Coding
Commercial name : Dolby Digital Plus with Dolby Atmos
Codec ID : A_EAC3
Duration : 2 h 9 min
Bit rate mode : Constant
Bit rate : 448 kb/s
Channel(s) : 6 channels
Channel layout : L R C LFE Ls Rs
Sampling rate : 48.0 kHz
Frame rate : 31.250 FPS (1536 SPF)
Compression mode : Lossy
Delay relative to video : 903 ms
Stream size : 415 MiB (2%)
Language : English
Service kind : Complete Main
Default : Yes
Forced : No
Complexity index : 16
Number of dynamic objects : 15
Bed channel count : 1 channel
Bed channel configuration : LFE

Text #1
ID : 3
Format : UTF-8
Codec ID : S_TEXT/UTF8
Codec ID/Info : UTF-8 Plain Text
Title : English
Language : English
Default : No
Forced : No

Text #2
ID : 4
Format : UTF-8
Codec ID : S_TEXT/UTF8
Codec ID/Info : UTF-8 Plain Text
Title : English (SDH)
Language : English
Default : No
Forced : No

Menu
00:00:00.000 : en:Chapter 1
00:09:33.000 : en:Chapter 2
00:16:04.000 : en:Chapter 3
00:25:15.000 : en:Chapter 4
00:35:23.000 : en:Chapter 5
00:41:53.000 : en:Chapter 6
00:49:46.000 : en:Chapter 7
00:57:05.000 : en:Chapter 8
01:04:45.000 : en:Chapter 9
01:15:51.000 : en:Chapter 10
01:22:43.000 : en:Chapter 11
01:29:18.000 : en:Chapter 12
01:36:36.000 : en:Chapter 13
01:44:40.000 : en:Chapter 14
01:52:09.000 : en:Chapter 15
01:57:37.000 : en:Chapter 16


10dd70160f541.png
c53a304635f59.png



xiazai.jpg

游客,如果您要查看本帖隐藏内容请回复  VIP免回复、免金币快速下载全站资源 自助在线开通VIP

郑重声明

HDSky所有影视作品来自互联网公开渠道,内容系自动转载供网友交流学习,影视版权均归原电影公司所有, 我们不提供任何影片压制、存储及传播服务,如果喜欢请购买正版!转载内容如有侵权请与 admin@hdsky.net 联系 我们将尽快删除!

VIP3

Rank: 8Rank: 8

金币
10

 成长值: 3135
发表于 2019-9-17 22:04:43 |显示全部楼层
迅雷提示   获取种子信息失败........
回复

使用道具 举报

群众演员 Lv.3

Rank: 3Rank: 3

金币
4

发表于 2019-9-17 22:12:11 |显示全部楼层
来看看是什么号东西!!!!!
回复

使用道具 举报

管理员

Rank: 9Rank: 9Rank: 9

金币
4555087

最佳帅哥奖 管理人员勋章 天秤座 终身成就奖

发表于 2019-9-17 22:13:34 |显示全部楼层
hellozhengli 发表于 2019-9-17 22:04
迅雷提示   获取种子信息失败........

QQ20190917-221246@2x.png

迅雷测试可以下载,新种子速度暂时缓慢。
回复

使用道具 举报

普通观众 Lv.2

Rank: 2

金币
64

发表于 2019-9-17 22:43:10 |显示全部楼层
来看看是什么号东西
回复

使用道具 举报

群众演员 Lv.3

Rank: 3Rank: 3

金币
255

发表于 2019-9-18 02:28:18 |显示全部楼层
这么快就有4k高清了,太赞了!
回复

使用道具 举报

群众演员 Lv.3

Rank: 3Rank: 3

金币
467

发表于 2019-9-18 06:16:55 |显示全部楼层
4K,好清晰啊
回复

使用道具 举报

专业龙套 Lv.4

Rank: 4

金币
420

发表于 2019-9-18 08:34:02 |显示全部楼层
这么快就有4k高清了,太赞了!
回复

使用道具 举报

群众演员 Lv.3

Rank: 3Rank: 3

金币
166

发表于 2019-9-18 09:07:41 |显示全部楼层
阿阿阿阿阿阿阿阿阿阿阿阿阿阿阿阿阿阿阿阿阿阿阿阿阿阿阿阿阿阿阿阿阿阿啊草
回复

使用道具 举报

您需要登录后才可以回帖 登录 | 立即注册

本版积分规则

Archiver|手机版|HDSky高清论坛

GMT+8, 2019-10-19 18:05 , Processed in 0.142313 second(s), 36 queries .

Powered by Discuz! X3.4

© 2012-2019 HDSky Inc.

返回顶部