HDSky高清论坛

 找回密码
 立即注册

QQ登录

只需一步,快速开始

 精彩推荐 (提示:请使用迅雷完整版开通VIP、或BitComet、Utorrent 、115和百度网盘等工具),好电影,怎能只看一次!
查看: 2296|回复: 38

变形金刚1-5[中字]2007-2017 Blu-Ray 1080p AVC DTS-5 1&7 1-LKS 482GB

[复制链接]

管理员

Rank: 9Rank: 9Rank: 9

金币
4537803

最佳帅哥奖 管理人员勋章 天秤座 终身成就奖

发表于 2018-11-23 23:05:24 |显示全部楼层
[变形金刚1-5 原盘中字 *自购原盘* 极品收藏版本,推荐洗版!]
配置:1和2为港版双碟 3和4为泰盛2D+3D+花絮3碟 原盘已检测 5未知

◎译  名 变形金刚/变形金刚电影版
◎片  名 Transformers
◎年  代 2007
◎国  家 美国
◎类  别 动作/科幻
◎语  言 英语/西班牙语
◎上映日期 2007-07-03(美国)/2007-07-11(中国大陆)
◎IMDb评分  7.1/10 from 500,926 users
◎IMDb链接  http://www.imdb.com/title/tt0418279/
◎豆瓣评分 8.1/10 from 204,069 users
◎豆瓣链接 https://movie.douban.com/subject/1794171/
◎片  长 144 分钟
◎导  演 迈克?·贝 Michael Bay
◎主  演 希亚·拉博夫 Shia LaBeouf
      梅根·福克斯 Megan Fox
      乔什·杜哈明 Josh Duhamel
      伯尼·麦克 Bernie Mac
      ?·沃特 Jon Voight
      泰瑞斯·吉布森 Tyrese Gibson
      瑞切?·泰勒 Rachael Taylor
      约翰·特托罗 John Turturro
      约翰·罗宾森 John Robinson

◎简  介

  “霸天虎”的先遣部队旋风和毒蝎袭击了美军位于卡塔?的军事基地,与此同时,路障?助他的搭档迷乱?入了美国总统的座机空中一号,通过电脑获悉,要想找到威震天就必须找到维特维奇家族的那副眼镜,上面有威震天关于能量块的信息扫描,而它现在的拥有者萨姆?维特维奇(希亚·拉博夫饰)成为了“霸天虎”攻击的目标。
  萨姆是名高中生,学校里没有人相信他讲述的关于这副眼镜的历史,失望之余,萨姆把眼镜放到网上拍卖,然而从未引起买家的兴趣。这时父亲送了一辆破车给他,这辆车恰好就是“汽车人”大黄蜂的变形。大黄蜂?助萨姆交上了漂亮的女朋友(梅根·福克斯饰),但很快就遭遇了“霸天虎”的袭击,擎天柱带?其他“汽车人”赶到,一场机器人大战由此拉开了序幕。


QUOTE:

DISC INFO:

Disc Title:     TRANSFORMERS_D1_AP
Disc Size:      44,236,313,872 bytes
Protection:     AACS
BD-Java:        Yes
BDInfo:         0.5.8

PLAYLIST REPORT:

Name:                   00010.MPLS
Length:                 2:23:27.307 (h:m:s.ms)
Size:                   43,812,096,000 bytes
Total Bitrate:          40.72 Mbps

(*) Indicates included stream hidden by this playlist.

VIDEO:

Codec                   Bitrate             Description   
-----                   -------             -----------   
MPEG-4 AVC Video        31414 kbps          1080p / 23.976 fps / 16:9 / High Profile 4.1
* MPEG-4 AVC Video      690 kbps            480p / 23.976 fps / 16:9 / High Profile 3.2

AUDIO:

Codec                           Language        Bitrate         Description   
-----                           --------        -------         -----------   
Dolby TrueHD Audio              English         3654 kbps       5.1 / 48 kHz / 3654 kbps / 24-bit (AC3 Embedded: 5.1 / 48 kHz / 640 kbps / DN -4dB)
Dolby Digital Audio             Thai            640 kbps        5.1 / 48 kHz / 640 kbps / DN -4dB
Dolby Digital Audio             English         192 kbps        2.0 / 48 kHz / 192 kbps / DN -4dB / Dolby Surround
* Dolby Digital Plus Audio      English         192 kbps        2.0 / 48 kHz / 192 kbps

SUBTITLES:

Codec                           Language        Bitrate         Description   
-----                           --------        -------         -----------   
Presentation Graphics           Indonesian      34.157 kbps                    
Presentation Graphics           Chinese         22.406 kbps                    
Presentation Graphics           English         41.737 kbps                    
Presentation Graphics           Hindi           31.568 kbps                    
Presentation Graphics           Korean          18.133 kbps                    
Presentation Graphics           Chinese         27.852 kbps                    
Presentation Graphics           Thai            25.766 kbps                    
Presentation Graphics           English         53.125 kbps                    
Presentation Graphics           Korean          37.041 kbps                    
* Presentation Graphics         English         21.361 kbps                    

FILES:

Name            Time In         Length          Size            Total Bitrate  
----            -------         ------          ----            -------------  
00037.M2TS      0:00:00.000     2:23:27.307     43,812,096,000  40,721        


◎译  名 变形金刚2/变形金刚2:堕落者的复仇/变形金刚狂派再起(港)/变形金刚2:复仇之战(台)/变形金刚 II/变2
◎片  名 Transformers: Revenge of the Fallen
◎年  代 2009
◎国  家 美国
◎类  别 动作/科幻
◎语  言 英语/西班牙语/阿拉伯语
◎上映日期 2009-06-19(英国)/2009-06-24(中国大陆/美国)
◎IMDb评分  6.0/10 from 314,813 users
◎IMDb链接  http://www.imdb.com/title/tt1055369/
◎豆瓣评分 7.7/10 from 199,693 users
◎豆瓣链接 https://movie.douban.com/subject/2146991/
◎片  长 150分钟
◎导  演 迈克?·贝 Michael Bay
◎主  演 希亚·拉博夫 Shia LaBeouf
      梅根·福克斯 Megan Fox
      乔什·杜哈明 Josh Duhamel
      雨果·维文 Hugo Weaving
      伊莎贝?·卢卡斯 Isabel Lucas
      约翰·特托罗 John Turturro

◎简  介

  军方和汽车人的秘密合作计划面临被取消的危险,而重新复活的威震天和红蜘蛛引领霸天虎军队,密谋夺取能量源,企图在地球掀起又一场腥风血雨。
  此时主人公萨姆(希安·拉博夫 Shia LaBeouf 饰)告别相恋的女友米凯拉(梅根·福克斯 Megan Fox 饰),要开始自己?寐以求的大学生活了,但一切似乎都不那么顺利,一块小小的魔方碎片似乎在给予萨姆某种?示。为了获取魔方里的信息,霸天虎开始了对萨姆的追击,擎天柱为了保护萨姆而牺牲,萨姆受其感召,?定重新?负起自己的使命。
  萨姆在自己室友里奥(雷蒙·罗德里格斯 Ramon Rodriguez 饰)和“机器战士”西蒙斯(约翰·托?托罗  John Turturro 饰)的?助下,与女友米凯拉根据魔方碎片给萨姆的提示来到了埃及,他们在金字塔里发现了能量源。而此时,霸天虎的军队也赶到了埃及。军方此时有一小队人马也在西荤斯的要求下带?擎天柱的尸体来到了埃及,善恶双方力量在那片金色的沙漠展开了殊死搏斗。


QUOTE:

DISC INFO:

Disc Title:     TRANSFORMERS_2_D1_AP
Disc Size:      45,312,663,137 bytes
Protection:     AACS
BD-Java:        Yes
BDInfo:         0.5.8

PLAYLIST REPORT:

Name:                   00003.MPLS
Length:                 2:29:53.025 (h:m:s.ms)
Size:                   44,939,317,248 bytes
Total Bitrate:          39.98 Mbps

VIDEO:

Codec                   Bitrate             Description   
-----                   -------             -----------   
MPEG-4 AVC Video        31290 kbps          1080p / 23.976 fps / 16:9 / High Profile 4.1

AUDIO:

Codec                           Language        Bitrate         Description   
-----                           --------        -------         -----------   
DTS-HD Master Audio             English         4658 kbps       5.1 / 48 kHz / 4658 kbps / 24-bit (DTS Core: 5.1 / 48 kHz / 1509 kbps / 24-bit)
Dolby Digital Audio             English         224 kbps        2.0 / 48 kHz / 224 kbps / DN -4dB
Dolby Digital Audio             Japanese        640 kbps        5.1 / 48 kHz / 640 kbps / DN -4dB
Dolby Digital Audio             Thai            640 kbps        5.1 / 48 kHz / 640 kbps / DN -4dB

SUBTITLES:

Codec                           Language        Bitrate         Description   
-----                           --------        -------         -----------   
Presentation Graphics           Indonesian      37.223 kbps                    
Presentation Graphics           Malay           41.124 kbps                    
Presentation Graphics           Chinese         23.489 kbps                    
Presentation Graphics           English         41.365 kbps                    
Presentation Graphics           Hindi           31.593 kbps                    
Presentation Graphics           Korean          19.874 kbps                    
Presentation Graphics           Chinese         28.226 kbps                    
Presentation Graphics           Thai            27.514 kbps                    
Presentation Graphics           English         68.035 kbps                    
Presentation Graphics           Korean          39.358 kbps                    
Presentation Graphics           Thai            0.248 kbps                     
Presentation Graphics           Japanese        0.448 kbps                     
Presentation Graphics           Japanese        28.472 kbps                    
Presentation Graphics           Japanese        41.647 kbps                    

FILES:

Name            Time In         Length          Size            Total Bitrate  
----            -------         ------          ----            -------------  
00003.M2TS      0:00:00.000     2:29:53.025     44,939,317,248  39,977         


---------------------------------------------------------------------------------------------------


◎译  名 变形金刚3/变形金刚3:黑月降临(港)/变形金刚3:月黑之时/变形金刚 Ⅲ/变3
◎片  名 Transformers: Dark of the Moon
◎年  代 2011
◎国  家 美国
◎类  别 动作/科幻
◎语  言 英语/西班牙语/俄语/荷兰语
◎上映日期 2011-06-29(美国)/2011-07-21(中国大陆)
◎IMDb评分  6.3/10 from 318,108 users
◎IMDb链接  http://www.imdb.com/title/tt1399103/
◎豆瓣评分 7.1/10 from 191,132 users
◎豆瓣链接 https://movie.douban.com/subject/3610047/
◎片  长 154分钟
◎导  演 迈克?·贝 Michael Bay
◎主  演 希亚·拉博夫 Shia LaBeouf
      罗茜·?丁顿-惠特莉 Rosie Huntington-Whiteley
      乔什·杜哈明 Josh Duhamel
      泰瑞斯·吉布森 Tyrese Gibson
      约翰·马?科维奇 John Malkovich
      弗兰西斯·麦克多蒙德 Frances McDormand
      郑肯 Ken Jeong
      凯文·杜恩 Kevin Dunn (I)
      朱丽?·怀特 Julie White (I)
      帕特里克·德姆西 Patrick Dempsey (I)
      艾伦·图代克 Alan Tudyk

◎简  介

  距今50多年前,一艘来自赛博坦的飞船坠落月球,由此引发了美苏两国的太空竞赛。人类争相登上月球,只为一探飞船残骸中的秘密。时间回到21世纪初,经过几番征战,汽车人终于挫败霸天虎的入侵,继而与人类合作,共同保卫美丽的地球。然而发生在切?诺贝利的事件?将尘封已久的月球计划重新摆到桌面。为了防止霸天虎找到能量柱为非作歹,擎天柱与战友飞赴月球,更从当年的飞船中救出了汽车人的先代领导者——御天敌。御天敌是能量柱的发明者,将上百根能量柱集合在一起便可制造太空桥,实现物质的瞬间传送。
  忙?找工作以及和女友卡莉(罗茜·?丁顿-惠特莉Rosie Huntington-Whiteley 饰)经营爱情的山姆(希亚·拉博夫 Shia LaBeouf 饰)可避免地卷入其中,他渐渐发现霸天虎的操纵一切的阴谋,?不知更大的阴谋和危机隐藏在那月影背后……


QUOTE:

2D版DISC INFO:

Disc Title:     TRANSFORMERS_3_SL
Disc Size:      47,817,507,652 bytes
Protection:     AACS
BD-Java:        Yes
BDInfo:         0.5.8

PLAYLIST REPORT:

Name:                   00800.MPLS
Length:                 2:34:23.295 (h:m:s.ms)
Size:                   47,151,366,144 bytes
Total Bitrate:          40.72 Mbps

VIDEO:

Codec                   Bitrate             Description   
-----                   -------             -----------   
MPEG-4 AVC Video        27668 kbps          1080p / 23.976 fps / 16:9 / High Profile 4.1

AUDIO:

Codec                           Language        Bitrate         Description   
-----                           --------        -------         -----------   
Dolby TrueHD Audio              English         4301 kbps       7.1 / 48 kHz / 4301 kbps / 24-bit (AC3 Embedded: 5.1 / 48 kHz / 640 kbps / DN -4dB)
Dolby Digital Audio             Czech           640 kbps        5.1 / 48 kHz / 640 kbps / DN -4dB
Dolby Digital Audio             Hungarian       640 kbps        5.1 / 48 kHz / 640 kbps / DN -4dB
Dolby Digital Audio             Polish          640 kbps        5.1 / 48 kHz / 640 kbps / DN -4dB
Dolby Digital Audio             Russian         640 kbps        5.1 / 48 kHz / 640 kbps / DN -4dB
Dolby Digital Audio             Thai            640 kbps        5.1 / 48 kHz / 640 kbps / DN -4dB
Dolby Digital Audio             Turkish         640 kbps        5.1 / 48 kHz / 640 kbps / DN -4dB

SUBTITLES:

Codec                           Language        Bitrate         Description   
-----                           --------        -------         -----------   
Presentation Graphics           Arabic          19.459 kbps                    
Presentation Graphics           Indonesian      38.733 kbps                    
Presentation Graphics           Malay           42.681 kbps                    
Presentation Graphics           Bulgarian       33.809 kbps                    
Presentation Graphics           Chinese         27.960 kbps                    
Presentation Graphics           Czech           33.025 kbps                    
Presentation Graphics           Greek           36.160 kbps                    
Presentation Graphics           Estonian        39.153 kbps                    
Presentation Graphics           English         40.483 kbps                    
Presentation Graphics           Hebrew          25.343 kbps                    
Presentation Graphics           Hindi           32.139 kbps                    
Presentation Graphics           Croatian        33.728 kbps                    
Presentation Graphics           Icelandic       32.282 kbps                    
Presentation Graphics           Korean          20.383 kbps                    
Presentation Graphics           Latvian         38.121 kbps                    
Presentation Graphics           Lithuanian      33.973 kbps                    
Presentation Graphics           Hungarian       39.467 kbps                    
Presentation Graphics           Chinese         27.473 kbps                    
Presentation Graphics           Polish          29.915 kbps                    
Presentation Graphics           Portuguese      35.736 kbps                    
Presentation Graphics           Russian         29.804 kbps                    
Presentation Graphics           Romanian        32.785 kbps                    
Presentation Graphics           Chinese         29.556 kbps                    
Presentation Graphics           Slovenian       29.861 kbps                    
Presentation Graphics           Slovak          37.512 kbps                    
Presentation Graphics           Serbian         33.255 kbps                    
Presentation Graphics           Thai            26.304 kbps                    
Presentation Graphics           Turkish         34.645 kbps                    
Presentation Graphics           Ukrainian       39.935 kbps                    

FILES:

Name            Time In         Length          Size            Total Bitrate  
----            -------         ------          ----            -------------  
00800.M2TS      0:00:00.000     2:34:23.295     47,151,366,144  40,721         

--------------------------------------------------------------------------

3D版DISC INFO:

Disc Title:     TRANSFORMERS_3_3D_ES
Disc Size:      46,478,902,825 bytes
Protection:     AACS
BD-Java:        Yes
Extras:         Blu-ray 3D
BDInfo:         0.5.8

PLAYLIST REPORT:

Name:                   00799.MPLS
Length:                 2:34:23.587 (h:m:s.ms)
Size:                   45,218,512,896 bytes
Total Bitrate:          39.05 Mbps

VIDEO:

Codec                   Bitrate             Description   
-----                   -------             -----------   
MPEG-4 AVC Video        19561 kbps          1080p / 23.976 fps / 16:9 / High Profile 4.1
MPEG-4 MVC Video        8544 kbps                          

AUDIO:

Codec                           Language        Bitrate         Description   
-----                           --------        -------         -----------   
Dolby TrueHD Audio              English         4301 kbps       7.1 / 48 kHz / 4301 kbps / 24-bit (AC3 Embedded: 5.1 / 48 kHz / 640 kbps / DN -4dB)
Dolby Digital Audio             French          640 kbps        5.1 / 48 kHz / 640 kbps / DN -4dB
Dolby Digital Audio             Italian         640 kbps        5.1 / 48 kHz / 640 kbps / DN -4dB
Dolby Digital Audio             Thai            640 kbps        5.1 / 48 kHz / 640 kbps / DN -4dB

SUBTITLES:

Codec                           Language        Bitrate         Description   
-----                           --------        -------         -----------   
Presentation Graphics           Chinese         27.959 kbps                    
Presentation Graphics           English         40.473 kbps                    
Presentation Graphics           French          31.365 kbps                    
Presentation Graphics           Italian         34.387 kbps                    
Presentation Graphics           Korean          20.382 kbps                    
Presentation Graphics           Chinese         27.472 kbps                    
Presentation Graphics           Dutch           32.193 kbps                    
Presentation Graphics           Chinese         29.555 kbps                    
Presentation Graphics           Thai            26.303 kbps                    

FILES:

Name            Time In         Length          Size            Total Bitrate  
----            -------         ------          ----            -------------  
00002.SSIF      0:00:00.000     2:34:23.587     45,218,512,896  39,051         


---------------------------------------------------------------------------------------------------


◎译  名 变形金刚4:绝迹重生/变形金刚:歼灭世纪(港)/变形金刚4:灭绝时代/变形金刚4/变4
◎片  名 Transformers: Age of Extinction
◎年  代 2014
◎国  家 美国/中国大陆
◎类  别 动作/科幻
◎语  言 英语/?语普通话/粤语
◎上映日期 2014-06-19(香港首映)/2014-06-27(美国/中国大陆)
◎IMDb评分  5.7/10 from 234,112 users
◎IMDb链接  http://www.imdb.com/title/tt2109248/
◎豆瓣评分 6.6/10 from 171,408 users
◎豆瓣链接 https://movie.douban.com/subject/7054604/
◎片  长 166分钟
◎导  演 迈克?·贝 Michael Bay
◎主  演 马克·沃?伯格 Mark Wahlberg
      斯坦利·图齐 Stanley Tucci
      凯?希·格兰莫 Kelsey Grammer
      妮可拉·佩?茨  Nicola Peltz
      杰克·莱诺 Jack Reynor
      提图斯·维里沃 Titus Welliver
      索非亚·迈?斯 Sophia Myles
      李冰冰 Bingbing Li
      托德·约瑟夫·米勒 T.J. Miller
      彼特·库伦 Peter Cullen
      约翰·迪·玛吉欧 John Di Maggio
      罗伯特·福克沃斯 Robert Foxworth
      约翰·古德曼 John Goodman
      马克·瑞安 Mark Ryan
      渡边谦 Ken Watanabe
      弗兰克·维?克 Frank Welker
      雷诺·维?森 Reno Wilson
      阿比盖?·克莱因 Abigail Klein
      托马斯·列农 Thomas Lennon
      韩庚 Geng Han
      巫刚 Gang Wu
      吕良伟 Ray Lui
      王敏德  Michael Wong
      纪培慧 Teresa Daley
      邹市明 Shiming Zou

◎简  介

  当年那场惨烈的芝加哥大战,汽车人虽然成功击退了霸天虎的入侵,?也让地球人对他们失去了应有的信任与尊重。由美国中情局组建的“墓风”部队对所有的变形金刚进行差别的猎杀,一时间汽车人和霸天虎全都在地球不见了踪影。某天,居住在得州的落魄机械发明家凯德·伊格(马克·沃?伯格 Marky Mark 饰)买回来一辆破旧的卡车车头,谁知那竟是处在休眠中的汽车人首领擎天柱。嗅到气息的墓风部队蜂拥而至,苏醒后的擎天柱救走了凯德一家,也和散落在各个角落的汽车人相继取得联系。另一方面,疯狂的人类科学家从变形金刚的残骸中获知了他们变形的秘密,并企图借此制造出人造金刚,而脱胎自威震天的惊破天正是他们的得意作品以及催命死神。
  新一轮的危机卷土而来,地球面临更大的?难……


QUOTE:

2D版DISC INFO:

Disc Title:     Transformers_Age_of_Extinction
Disc Size:      41,058,417,657 bytes
Protection:     AACS
BD-Java:        Yes
BDInfo:         0.5.8

PLAYLIST REPORT:

Name:                   00800.MPLS
Length:                 2:45:24.414 (h:m:s.ms)
Size:                   40,548,132,864 bytes
Total Bitrate:          32.69 Mbps

VIDEO:

Codec                   Bitrate             Description   
-----                   -------             -----------   
MPEG-4 AVC Video        24246 kbps          1080p / 23.976 fps / 16:9 / High Profile 4.1

AUDIO:

Codec                           Language        Bitrate         Description   
-----                           --------        -------         -----------   
Dolby TrueHD Audio              English         4427 kbps       7.1 / 48 kHz / 4427 kbps / 24-bit (AC3 Embedded: 5.1 / 48 kHz / 640 kbps / DN -4dB)
Dolby Digital Audio             Chinese         640 kbps        5.1 / 48 kHz / 640 kbps / DN -4dB

SUBTITLES:

Codec                           Language        Bitrate         Description   
-----                           --------        -------         -----------   
Presentation Graphics           Chinese         21.734 kbps                    
Presentation Graphics           English         36.264 kbps                    
Presentation Graphics           Chinese         27.453 kbps                    
Presentation Graphics           Chinese         29.086 kbps                    

FILES:

Name            Time In         Length          Size            Total Bitrate  
----            -------         ------          ----            -------------  
01064.M2TS      0:00:00.000     2:45:24.414     40,548,132,864  32,686         

--------------------------------------------------------------------------

3D版DISC INFO:

Disc Title:     Transformers_Age_of_Extinction_3D
Disc Size:      42,713,860,013 bytes
Protection:     AACS
BD-Java:        Yes
Extras:         Blu-ray 3D
BDInfo:         0.5.8

PLAYLIST REPORT:

Name:                   00800.MPLS
Length:                 2:45:24.414 (h:m:s.ms)
Size:                   42,130,655,232 bytes
Total Bitrate:          33.96 Mbps

VIDEO:

Codec                   Bitrate             Description   
-----                   -------             -----------   
MPEG-4 AVC Video        17614 kbps          1080p / 23.976 fps / 16:9 / High Profile 4.1
MPEG-4 MVC Video        7120 kbps                          

AUDIO:

Codec                           Language        Bitrate         Description   
-----                           --------        -------         -----------   
Dolby TrueHD Audio              English         4427 kbps       7.1 / 48 kHz / 4427 kbps / 24-bit (AC3 Embedded: 5.1 / 48 kHz / 640 kbps / DN -4dB)
Dolby Digital Audio             Chinese         640 kbps        5.1 / 48 kHz / 640 kbps / DN -4dB

SUBTITLES:

Codec                           Language        Bitrate         Description   
-----                           --------        -------         -----------   
Presentation Graphics           Chinese         21.734 kbps                    
Presentation Graphics           English         36.264 kbps                    
Presentation Graphics           Chinese         27.453 kbps                    
Presentation Graphics           Chinese         29.086 kbps                    

FILES:

Name            Time In         Length          Size            Total Bitrate  
----            -------         ------          ----            -------------  
00800.SSIF      0:00:00.000     2:45:24.414     42,130,655,232  33,961         


◎译  名 变形金刚5:最后的骑士/变形金刚:终极战士(港)/变形金刚5:最终骑士(台)/变形金刚5/变5

◎片  名 Transformers: The Last Knight

◎年  代 2017

◎产  地 美国

◎类  别 动作/科幻

◎语  言 英语

◎上映日期 2017-06-21(美国)/2017-06-23(中国大陆)

◎IMDb评分  5.2/10 from 70,315 users

◎IMDb链接  http://www.imdb.com/title/tt3371366/

◎豆瓣评分 4.8/10 from 120,813 users

◎豆瓣链接 https://movie.douban.com/subject/25824686/

◎片  长 149分钟/150分钟(中国大陆)

◎导  演 迈克尔·贝 Michael Bay

◎主  演 马克·沃尔伯格 Mark Wahlberg

      伊莎贝拉·莫奈 Isabela Moner

      劳拉·哈德克 Laura Haddock

      安东尼·霍普金斯 Anthony Hopkins

      乔什·杜哈明 Josh Duhamel

      彼特·库伦 Peter Cullen

      约翰·古德曼 John Goodman

      斯坦利·图齐 Stanley Tucci

      桑地亚哥·卡布瑞拉 Santiago Cabrera

      吉尔·伯明翰 Gil Birmingham

      渡边谦 Ken Watanabe

      约翰·迪·玛吉欧 John Di Maggio

      弗兰克·维尔克 Frank Welker

      米彻·佩勒吉 Mitch Pileggi



◎简  介



  地球陷入毁灭危机,擎天柱失踪,越来越多的汽车人和霸天虎来到地球,前海豹突击队成员威廉·伦诺克斯( 乔什·杜哈明饰)成为了政府军组建的TRF中的一员,负责绞杀地球上的汽车人——不论好坏。在芝加哥街头,伦诺克斯遇到了凯德·伊格尔(马克·沃尔伯格饰)孤儿伊莎贝拉(伊莎贝拉·莫奈饰)。 凯德因为帮助、支持汽车人而成为政府通缉犯,所以他在一个垃圾场看管着一群幸存的汽车人。与此同时,失踪的擎天柱被女巫昆塔莎黑化,要毁灭地球。拯救世界的责任于是落在了这支由凯德为首的非同寻常的队伍身上,大黄蜂、一位英国爵士(安东尼·霍普金斯饰)还有一位牛津大学教授(劳拉·哈德克饰),一场史诗浩劫彻底将地球变成了战场 。



DISC INFO:

Disc Title:     Transformers.The.Last.Knight.2017.2160p.BluRay.HEVC.TrueHD.7.1.Atmos-TERMiNAL
Disc Size:      96,924,365,984 bytes
Protection:     AACS2
BD-Java:        Yes
Extras:         Ultra HD
BDInfo:         0.5.8.6

PLAYLIST REPORT:

Name:                   00800.MPLS
Length:                 2:34:38.769 (h:m:s.ms)
Size:                   95,740,655,616 bytes
Total Bitrate:          62.10 Mbps

VIDEO:

Codec                   Bitrate             Description     
-----                   -------             -----------     
MPEG-H HEVC Video       74600 kbps           2160p / 23.976 fps / 16:9 / Main 10 Profile 5.1 High / 4:2:0 / 10 bits / HDR / BT.2020 /
MPEG-H HEVC Video       6528 kbps            1080p / 23.976 fps / 16:9 / Main 10 Profile 5.1 High / 4:2:0 / 10 bits / HDR / BT.2020 /


AUDIO:

Codec                           Language        Bitrate         Description     
-----                           --------        -------         -----------     
Dolby TrueHD Audio              English         4298 kbps       7.1-Atmos / 48 kHz / 4399 kbps / 24-bit (AC3 Core: 5.1-EX / 48 kHz / 448 kbps)
Dolby Digital Audio             English         640 kbps        5.1 / 48 kHz / 640 kbps / DN -4dB
Dolby Digital Audio             English         224 kbps        2.0 / 48 kHz / 224 kbps / DN -4dB / Dolby Surround
Dolby Digital Audio             French          640 kbps        5.1 / 48 kHz / 640 kbps / DN -4dB
Dolby Digital Audio             Spanish         640 kbps        5.1 / 48 kHz / 640 kbps / DN -4dB
Dolby Digital Audio             Portuguese      640 kbps        5.1 / 48 kHz / 640 kbps / DN -4dB
Dolby Digital Audio             English         640 kbps        5.1 / 48 kHz / 640 kbps / DN -4dB

SUBTITLES:

Codec                           Language        Bitrate         Description     
-----                           --------        -------         -----------     
Presentation Graphics           English         46.872 kbps                     
Presentation Graphics           English         39.901 kbps                     
Presentation Graphics           French          38.513 kbps                     
Presentation Graphics           Spanish         37.167 kbps              

蓝光原盘超大文件一般下载软件下载不了
推荐使用115网盘离线或者其他


xiazai.jpg

游客,如果您要查看本帖隐藏内容请回复  VIP免回复、免金币快速下载全站资源 自助在线开通VIP

支付宝 扫码领红包

郑重声明

HDSky所有影视作品来自互联网公开渠道,内容系自动转载供网友交流学习,影视版权均归原电影公司所有, 我们不提供任何影片压制、存储及传播服务,如果喜欢请购买正版!转载内容如有侵权请与 admin@hdsky.net 联系 我们将尽快删除!

群众演员 Lv.3

Rank: 3Rank: 3

金币
441

发表于 2018-11-24 00:12:35 |显示全部楼层
全集好是好,可是请问有没有字幕啊?
回复

使用道具 举报

专业龙套 Lv.4

Rank: 4

金币
430

发表于 2018-11-24 06:56:04 |显示全部楼层
这东西我收了!谢谢楼主!
回复

使用道具 举报

普通观众 Lv.2

Rank: 2

金币
-14

发表于 2018-11-24 07:54:35 |显示全部楼层
有点太大 不知道有没有中文音轨
回复

使用道具 举报

普通观众 Lv.2

Rank: 2

金币
2

发表于 2018-11-24 09:00:46 |显示全部楼层
好东西,下载看看那,谢谢分享
回复

使用道具 举报

群众演员 Lv.3

Rank: 3Rank: 3

金币
282

发表于 2018-11-24 09:17:00 |显示全部楼层
感谢  感谢  十分感谢
回复

使用道具 举报

专业龙套 Lv.4

Rank: 4

金币
942

发表于 2018-11-24 10:09:27 |显示全部楼层
这是好东西,感谢分享
回复

使用道具 举报

普通观众 Lv.2

Rank: 2

金币
35

发表于 2018-11-24 10:23:04 |显示全部楼层
感谢楼主的分享
回复

使用道具 举报

群众演员 Lv.3

Rank: 3Rank: 3

金币
477

发表于 2018-11-24 10:29:52 |显示全部楼层
感谢分享,顺祝身体健康,阖家幸福美满,万事如意开心!!!
回复

使用道具 举报

普通观众 Lv.2

Rank: 2

金币
4

发表于 2018-11-24 16:03:13 |显示全部楼层
变形金刚1-5[中字]2007-2017 Blu-Ray 1080p AVC DTS-5 1&7 1-LKS 482GB
回复

使用道具 举报

您需要登录后才可以回帖 登录 | 立即注册

本版积分规则

Archiver|手机版|HDSky高清论坛

GMT+8, 2019-8-25 05:01 , Processed in 0.171581 second(s), 34 queries .

Powered by Discuz! X3.4

© 2012-2019 HDSky Inc.

返回顶部